Wednesday , 17 October 2018
Breaking News

Monsoon Melodies (2018) – Bengali Romantic Full Web Series Rip x264 – AAC3

Monsoon Melodies (2018) – Bengali Romantic Full Web Series Rip x264 – AAC3

SCREENSHOTS

General
Format : Matroska
Format version : Version 4 / Version 2
File size : 751 MiB
Duration : 1 h 43 min

Video
ID : 1
Format : AVC
Format/Info : Advanced Video Codec
Format profile : High@L2.1
Format settings : CABAC / 4 Ref Frames
Format settings, CABAC : Yes
Format settings, RefFrames : 4 frames
Codec ID : V_MPEG4/ISO/AVC
Duration : 1 h 43 min
Bit rate : 1 018 kb/s
Width : 640 pixels
Height : 288 pixels
Display aspect ratio : 2.222
Frame rate mode : Constant
Frame rate : 25.000 FPS
Color space : YUV
Chroma subsampling : 4:2:0
Bit depth : 8 bits
Scan type : Progressive
Bits/(Pixel*Frame) : 0.221
Stream size : 754 MiB (89%)

Audio
ID : 2
Format : AAC
Format/Info : Advanced Audio Codec
Format profile : HE-AAC / LC
Format settings : Explicit
Codec ID : A_AAC-2
Duration : 1 h 43 min
Bit rate : 128 kb/s
Channel(s) : 6 channels
Channel positions : Front: L C R, Side: L R, LFE
Sampling rate : 48.0 kHz
Stream size : 94.8 MiB (11%)

DOWNLOAD SAVE LINK*FAST SPEED*

WATCH AND DOWNLOAD THIS MOVIE

Leave a Reply

Your email address will not be published. Required fields are marked *

*